AU RENDEZ VOUS DES FANS DE NATASHA ST PIER

Samedi Soir On Chante Goldman (19 - 1 - 2013)

Voir le sujet précédent Voir le sujet suivant Aller en bas

Samedi Soir On Chante Goldman (19 - 1 - 2013)

Message par Guillermo_19_86 le Dim 20 Jan - 18:24




1. VA - Il suffira d'un signe
2. M. Pokora & Tal - Envole-moi
3. Johnny Hallyday, Lorie, Amel Bent et Shy'm - Je te promets
4. Hélène Ségara,Corneille et Florent Mothe - Né en 17 à Leindenstadt
5. VA - Medley
6. Pascal Obispo - Je marche seul
7. Amel Bent et Florent Mothe - Comme toi
8. Emmanuel Moire,Corneille,Garou - Au bout de mes rêves
9. Khaled - Aicha
10. Chimene Badi et Amel Bent - On ne change pas/S'il suffisait d'aimer/Pour que tu m'aimes encore
11. M. Pokora,Emmanuel Moire,Florent Mothe et Patricia Kaas - Il me dit que je suis belle
12. VA - Famille
13. Chimene Badi et Mickael Miro - La-Bas
14. Lorie,Emmanuel Moire et Alizée - Medley
15. Shy'm - Veiller tard
16. Natasha St-Pier,Alizée,Emmanuel Moire, Sofia Essaidi et Mickael Miro - Medley
17. M. Pokora - A nos actes manques
18. Florent Pagny -
19. Sofia Essaidi, Lorie et Natasha St-Pier - Encore un matin
20. Chimene Badi et Alizée - Long Is The Road
21. Jenifer - Sache que je
22. Johnny Hallyday -


HDTV 1080i
H.264; 1920x1080; 7 831 Kbps ; 25.000 fps
AC-3; 192 Kbps; 48,0 КГц; 2 ch


Spoiler:
Complete name :Samedi soir on chante Goldman.ts
Format : MPEG-TS
File size : 7.30 GiB
Duration : 2h 3mn
Overall bit rate mode : Variable
Overall bit rate : 8 442 Kbps
Video
ID : 160 (0xA0)
Menu ID : 9041 (0x2351)
Format : AVC
Format/Info : Advanced Video Codec
Format profile : High@L4.0
Format settings, CABAC : Yes
Format settings, ReFrames : 4 frames
Format settings, GOP : M=4, N=24
Codec ID : 27
Duration : 2h 3mn
Bit rate : 7 831 Kbps
Width : 1 920 pixels
Height : 1 080 pixels
Display aspect ratio : 16:9
Frame rate : 25.000 fps
Color space : YUV
Chroma subsampling : 4:2:0
Bit depth : 8 bits
Scan type : MBAFF
Bits/(Pixel*Frame) : 0.151
Stream size : 6.78 GiB (93%)
Encryption : Seca Mediaguard 1/2
Color primaries : BT.709
Transfer characteristics : BT.709
Matrix coefficients : BT.709
Audio
ID : 82 (0x52)
Menu ID : 9041 (0x2351)
Format : AC-3
Format/Info : Audio Coding 3
Format profile : Dolby Digital
Mode extension : CM (complete main)
Format settings, Endianness : Big
Codec ID : 6
Duration : 2h 3mn
Bit rate mode : Constant
Bit rate : 192 Kbps
Channel(s) : 2 channels
Channel positions : Front: L R
Sampling rate : 48.0 KHz
Bit depth : 16 bits
Compression mode : Lossy
Delay relative to video : 2ms
Stream size : 170 MiB (2%)
Language : French
Encryption : Seca Mediaguard 1/2


Il s'agit d'un torrent
zippyshare.com/v/61736414/file.html
avatar
Guillermo_19_86

Messages : 209
Points : 2265
Date d'inscription : 09/05/2012
Age : 30
Localisation : Miranda de Ebro (Espagne)

Voir le profil de l'utilisateur

Revenir en haut Aller en bas

Voir le sujet précédent Voir le sujet suivant Revenir en haut

- Sujets similaires

 
Permission de ce forum:
Vous ne pouvez pas répondre aux sujets dans ce forum